Alta definición
Registro en forodvd
+ Responder tema
Resultados 1 al 4 de 4

Tema: Videos tipo .mkv con 42LM6200

  1. #1
    recién llegado
    Registro
    11-febrero-2014
    Mensajes
    2
    Agradecido
    0 veces

    Predeterminado Videos tipo .mkv con 42LM6200

    Regístrate para eliminar esta publicidad

    Hola, soy nuevo en el foro.

    Bueno mi duda es la siguiente, tengo unos videos en 3D y otros el FULL HD en mi computadora. Tienen codecs de video tipo AVC o Advanced Video Codec y codec de audio tipo Audio Codec-3. Mi duda es si mi Smart Tv puede reproducir estos codecs con contenedor .mkv . Por desgracia no me encuentro en mi dulce hogar para comprobar ya que estoy fuera de mi casa por cuestiones laborales y no tengo accesso a mi TV LG. Tambien he checado que en el manual en linea que la empresa LG ofrece solo viene que soporta .divx hd pero he visto que algunas TVs menos recientes que la mia pueden correr .mkv.

    ¿Puede reproducir .mkv con estos codecs? Ademas como mencione tengo videos en 3D ¿Estos detectaran el video en 3D?
    Si no puede reproducir esos codecs, ¿Cuales si puede y con que programa puede cambiar los codecs?

    Me han surgido estas dudas ya que yo y un amigo grabamos en 3D y el me ha pasado en esos formatos.

    Muchas gracias Espero y que me respondan.

    Un Saludos a todos
    Última edición por policronio; 12/02/2014 a las 18:02

  2. #2
    colaborador Avatar de policronio
    Registro
    11-marzo-2011
    Mensajes
    3,602
    Agradecido
    3528 veces

    Predeterminado Re: Videos tipo .mkv con 42LM6200

    Cita Iniciado por RopeyMovie Ver mensaje
    Hola, soy nuevo en el foro.

    Bueno mi duda es la siguiente, tengo unos videos en 3D y otros el FULL HD en mi computadora. Tienen codecs de video tipo AVC o Advanced Video Codec y codec de audio tipo Audio Codec-3. Mi duda es si mi Smart Tv puede reproducir estos codecs con contenedor .mkv . Por desgracia no me encuentro en mi dulce hogar para comprobar ya que estoy fuera de mi casa por cuestiones laborales y no tengo accesso a mi TV LG. Tambien he checado que en el manual en linea que la empresa LG ofrece solo viene que soporta .divx hd pero he visto que algunas TVs menos recientes que la mia pueden correr .mkv.

    ¿Puede reproducir .mkv con estos codecs? Ademas como mencione tengo videos en 3D ¿Estos detectaran el video en 3D?
    Si no puede reproducir esos codecs, ¿Cuales si puede y con que programa puede cambiar los codecs?

    Me han surgido estas dudas ya que yo y un amigo grabamos en 3D y el me ha pasado en esos formatos.

    Muchas gracias Espero y que me respondan.

    Un Saludos a todos
    No vas a terner problemas con la reproducción de esos videos siempre y cuando no tengan una tasa de bits demasiado elevada.

    El principal problema en la reproducción de videos no suele ser por codecs sino por un bitrate dimasiado elevado.
    Teletabis y RopeyMovie han agradecido esto.

  3. #3
    recién llegado
    Registro
    11-febrero-2014
    Mensajes
    2
    Agradecido
    0 veces

    Predeterminado Re: Videos tipo .mkv con 42LM6200

    Muchas gracias por responder

    Entonces si por mediainfo me da los siguientes datos
    Format : AVC
    Format/Info : Advanced Video Codec
    Format profile : High@L4.1
    Format settings, CABAC : Yes
    Format settings, ReFrames : 2 frames
    Muxing mode : Container profile=Unknown@4.1
    Codec ID : V_MPEG4/ISO/AVC
    Duration : 1h 30mn
    Bit rate : 12.1 Mbps
    Width : 1 920 pixels
    Height : 1 080 pixels
    Display aspect ratio : 16:9
    Frame rate : 23.976 fps
    Resolution : 24 bits
    Colorimetry : 4:2:0
    Scan type : Progressive
    Bits/(Pixel*Frame) : 0.244
    Stream size : 7.71 GiB (95%)
    Writing library : x264 core
    colour_primaries : BT.709-5, BT.1361, IEC 61966-2-4, SMPTE RP177
    transfer_characteristics : BT.709-5, BT.1361
    matrix_coefficients : BT.709-5, BT.1361, IEC 61966-2-4 709, SMPTE RP177

    ¿La tasa de bits es de 24? y ¿Es alta para el televisor?

    Espero tus Respuestas. Saludos

  4. #4
    colaborador Avatar de policronio
    Registro
    11-marzo-2011
    Mensajes
    3,602
    Agradecido
    3528 veces

    Predeterminado Re: Videos tipo .mkv con 42LM6200

    Cita Iniciado por RopeyMovie Ver mensaje
    Muchas gracias por responder

    Entonces si por mediainfo me da los siguientes datos
    Format : AVC
    Format/Info : Advanced Video Codec
    Format profile : High@L4.1
    Format settings, CABAC : Yes
    Format settings, ReFrames : 2 frames
    Muxing mode : Container profile=Unknown@4.1
    Codec ID : V_MPEG4/ISO/AVC
    Duration : 1h 30mn
    Bit rate : 12.1 Mbps
    Width : 1 920 pixels
    Height : 1 080 pixels
    Display aspect ratio : 16:9
    Frame rate : 23.976 fps
    Resolution : 24 bits
    Colorimetry : 4:2:0
    Scan type : Progressive
    Bits/(Pixel*Frame) : 0.244
    Stream size : 7.71 GiB (95%)
    Writing library : x264 core
    colour_primaries : BT.709-5, BT.1361, IEC 61966-2-4, SMPTE RP177
    transfer_characteristics : BT.709-5, BT.1361
    matrix_coefficients : BT.709-5, BT.1361, IEC 61966-2-4 709, SMPTE RP177

    ¿La tasa de bits es de 24? y ¿Es alta para el televisor?

    Espero tus Respuestas. Saludos
    La tasa de bits o bitrate es la que te he señalado en rojo.
    Aunque es un bitrate alto, no deberías tener problemas con la reproducción.
    Teletabis ha agradecido esto.

+ Responder tema

Temas similares

  1. ¿Es posible grabar con una Smart TV LG 42LM6200 ?
    Por diiaz en el foro TV: General y consejos de compra
    Respuestas: 4
    Último mensaje: 04/12/2012, 22:49
  2. tipo de conexiones ???
    Por vekol en el foro Cableado A/V, conexiones A/V, mandos a distancia
    Respuestas: 5
    Último mensaje: 03/01/2009, 23:07
  3. ¿Que tipo de reproductor?
    Por tachinda en el foro TV: General y consejos de compra
    Respuestas: 1
    Último mensaje: 26/01/2008, 22:20
  4. Tipo de cable
    Por josamv en el foro Cableado A/V, conexiones A/V, mandos a distancia
    Respuestas: 6
    Último mensaje: 20/01/2008, 12:18
  5. Un nuevo tipo de CD: el SHM-CD
    Por Yota en el foro Acústica (audiofília, tertulias audiófilas...)
    Respuestas: 1
    Último mensaje: 29/09/2007, 09:14

Permisos de publicación

  • No puedes crear nuevos temas
  • No puedes responder temas
  • No puedes subir archivos adjuntos
  • No puedes editar tus mensajes
  •  
Powered by vBulletin® Version 4.2.3
Copyright © 2019 vBulletin Solutions, Inc. All rights reserved.
Search Engine Optimization by vBSEO
Image resizer by SevenSkins