Alta definición
Registro en forodvd
+ Responder tema
Resultados 1 al 2 de 2

Tema: Problema leer archivo desde USB/HD en tv LG65UJ670V

  1. #1
    recién llegado
    Registro
    17-julio-2013
    Mensajes
    5
    Agradecido
    0 veces

    Predeterminado Problema leer archivo desde USB/HD en tv LG65UJ670V

    Regístrate para eliminar esta publicidad

    Buenas a todos.

    Me he comprado una LG 65UJ670V, 4K ULTRA HD.

    Me he bajado varias peliculas en ese formato para poder ver como se ven. Cada una pesa entre 40-70 GB.

    Al copiarlas a un disco duro e intentar leerlas desde la tv, me dice que no reconoce el formato y que no lo puede reproducir.

    Mirando las especificaciones de la tv, los formatos compatibles son los siguientes:





    Me he bajado el programa MKVToolnix https://mkvtoolnix.download/downloads.html para quitar cualquier subtitulo y cualquier pista de audio que me pudiera estar generando este problema.

    Finalmente he dejado el archivo de esta manera:



    y que analizándolo con el Mediainfo tiene las siguientes caracteristicas.

    General
    Unique ID : 240333269175287581852588249861257454621 (0xB4CE81046BE610F7AA67444E845C641D)
    Complete name : C:\Users\Fran\Downloads\Fast and Furious 8 HDR [4K UHD 2160p][HEVC X265][AC3 5.1 Castellano DTS-X 7.1-Ingles+Subs][ES-EN]\Fast and Furious 8 (1).mkv
    Format : Matroska
    Format version : Version 4 / Version 2
    File size : 42.7 GiB
    Duration : 2 h 15 min
    Overall bit rate : 44.9 Mb/s
    Movie name : Fast and Furios 8
    Encoded date : UTC 2017-09-30 13:20:39
    Writing application : mkvmerge v16.0.0 ('Protest') 64-bit
    Writing library : libebml v1.3.5 + libmatroska v1.4.8

    Video
    ID : 1
    Format : HEVC
    Format/Info : High Efficiency Video Coding
    Format profile : Main 10@L5.1@High
    Codec ID : V_MPEGH/ISO/HEVC
    Duration : 2 h 15 min
    Bit rate : 44.2 Mb/s
    Width : 3 840 pixels
    Height : 2 160 pixels
    Display aspect ratio : 16:9
    Frame rate mode : Constant
    Frame rate : 23.976 (24000/1001) FPS
    Color space : YUV
    Chroma subsampling : 4:2:0
    Bit depth : 10 bits
    Bits/(Pixel*Frame) : 0.222
    Stream size : 41.9 GiB (98%)
    Title : Fast and Furios 8
    Language : Spanish
    Default : Yes
    Forced : No
    Color range : Limited
    Color primaries : BT.2020
    Transfer characteristics : PQ
    Matrix coefficients : BT.2020 non-constant
    Mastering display color primaries : R: x=0.680000 y=0.320000, G: x=0.265000 y=0.690000, B: x=0.150000 y=0.060000, White point: x=0.312680 y=0.329000
    Mastering display luminance : min: 0.0050 cd/m2, max: 4000.0000 cd/m2
    Maximum Content Light Level : 1000 cd/m2
    Maximum Frame-Average Light Level : 602 cd/m2

    Audio
    ID : 2
    Format : DTS
    Format/Info : Digital Theater Systems
    Mode : 16
    Format settings, Endianness : Big
    Codec ID : A_DTS
    Duration : 2 h 15 min
    Bit rate mode : Constant
    Bit rate : 768 kb/s
    Channel(s) : 6 channels
    Channel positions : Front: L C R, Side: L R, LFE
    Sampling rate : 48.0 kHz
    Frame rate : 93.750 FPS (512 SPF)
    Bit depth : 24 bits
    Compression mode : Lossy
    Stream size : 747 MiB (2%)
    Language : Spanish
    Default : Yes
    Forced : Yes



    En principio, no veo que puede ser lo que esté fallando.

    ¿Alguien un poco más enterado me puede echar una mano?

    Muchisimas gracias de antemano.

    Saludos!

    Edit: Si me bajo una peli en MKV en formato 1080p, sí que las reproduce.

  2. #2
    recién llegado
    Registro
    16-agosto-2017
    Mensajes
    5
    Agradecido
    0 veces

    Predeterminado Re: Problema leer archivo desde USB/HD en tv LG65UJ670V

    Complete name : C:\Users\Fran\Downloads\Fast and Furious 8 HDR [4K UHD 2160p][HEVC X265][AC3 5.1 Castellano DTS-X 7.1-Ingles+Subs][ES-EN]\Fast and Furious 8 (1).mkv
    Parece ser que la peli esta con el codec H.265 (bastante nuevo, por cierto) y tu tele solo soporta hasta el H.264

+ Responder tema

Temas similares

  1. KD-43XD8305 - Formatos de archivo reproducibles desde USB
    Por dlosada en el foro TV Sony (2016)
    Respuestas: 6
    Último mensaje: 06/11/2016, 16:17
  2. Problema archivo 4 k
    Por Ertriqui en el foro TV Philips (2014)
    Respuestas: 0
    Último mensaje: 02/08/2016, 12:59
  3. Leer archivos por USB desde HDD externo
    Por zinnet en el foro TV Sony (2014)
    Respuestas: 5
    Último mensaje: 17/02/2015, 20:11
  4. Leer Video desde Lápiz USB
    Por espectral en el foro TV: General y consejos de compra
    Respuestas: 2
    Último mensaje: 28/12/2007, 00:31

Permisos de publicación

  • No puedes crear nuevos temas
  • No puedes responder temas
  • No puedes subir archivos adjuntos
  • No puedes editar tus mensajes
  •  
Powered by vBulletin® Version 4.2.3
Copyright © 2019 vBulletin Solutions, Inc. All rights reserved.
Search Engine Optimization by vBSEO
Image resizer by SevenSkins